Halloween (2018) x 1616 (2160p) HDR 5.1 x265 10bit Phun Psyz

  • Category Movies
  • Type UHD
  • Language English
  • Total size 2.7 GB
  • Uploaded By PhunPsyz
  • Downloads 344
  • Last checked 4 hours ago
  • Date uploaded 4 days ago
  • Seeders 16
  • Leechers 5

Infohash : F555249A29DF3698B5598B7EFC2CA74C87E7559D

www.imdb.com/title/tt1502407/

Laurie Strode confronts her long-time foe Michael Myers, the masked figure who has haunted her since she narrowly escaped his killing spree on Halloween night four decades ago.

Source: FGT 4K HDR Remux







Format : Matroska
Format version : Version 4 / Version 2
File size : 2.71 GiB
Duration : 1 h 45 min
Overall bit rate : 3 669 kb/s

Video
ID : 1
Format : HEVC
Format/Info : High Efficiency Video Coding
Format profile : Main [email protected]@High
Codec ID : V_MPEGH/ISO/HEVC
Duration : 1 h 45 min
Bit rate : 3 276 kb/s
Width : 3 840 pixels
Height : 1 616 pixels
Display aspect ratio : 2.40:1
Frame rate mode : Constant
Frame rate : 23.976 (24000/1001) FPS
Color space : YUV
Chroma subsampling : 4:2:0
Bit depth : 10 bits
Bits/(Pixel*Frame) : 0.022
Stream size : 2.42 GiB (89%)

Audio
ID : 2
Format : AC-3
Format/Info : Audio Coding 3
Commercial name : Dolby Digital
Codec ID : A_AC3
Duration : 1 h 45 min
Bit rate mode : Constant
Bit rate : 320 kb/s
Channel(s) : 6 channels
Channel layout : L R C LFE Ls Rs
Sampling rate : 48.0 kHz
Frame rate : 31.250 FPS (1536 SPF)
Bit depth : 16 bits
Compression mode : Lossy
Stream size : 242 MiB (9%)
Title : Surround
Language : English

Text
Language : English
Language : English
Language : Spanish
Language : French
Language : Spanish
Language : French
Default : No
Forced : No

Files:

  • Halloween (2018) x 1616 (2160p) HDR 5.1 x265 10bit Phun Psyz.mkv (2.7 GB)

Comments

Code:

  • udp://tracker.coppersurfer.tk:6969/announce
  • udp://tracker.opentrackr.org:1337/announce
  • udp://thetracker.org:80/announce
  • udp://tracker.pirateparty.gr:6969/announce
  • udp://tracker.internetwarriors.net:1337/announce
  • udp://tracker.torrent.eu.org:451/announce
  • udp://tracker.tiny-vps.com:6969/announce
  • udp://explodie.org:6969/announce
  • http://explodie.org:6969/announce
  • http://open.acgtracker.com:1096/announce
  • udp://182.176.139.129:6969/announce
  • udp://tracker.uw0.xyz:6969/announce